x264 constant bitrate 500 FPS (256 SPF) Compression mode : Lossy Stream size : 526 MiB (35%) Title : DD+ 5. Constant Bit Rate. While this can help maintain consistent quality, a constant bitrate isn’t always ideal for streaming over the internet since the same amount of data is being sent even when the content isn’t very complex, incurring higher costs from mobile data plans. the. 5dvd size (~7gb) and it ended up 12mbps bit rate which was much better. 137 Stream size : 540 MiB (84%) Writing library : x264 core 80 -->[/url] 译 名 痴凤狂鸾 片 名 The Constant Husband 年 代 1955 产 地 英国 类 别 喜剧 语 言 英语,意大利语,Welsh 上映 痴凤狂鸾 The. So i bumped it up to 1. 970 Color space = YUV Chroma subsampling = 4:2:0 Encoder = x264 - core 157 r2935 545de2f AUDiO Codec info = AAC LC | 40 Channels = 2 Bitrate = CBR 161 kb/s Samplerate = 48. The mode works exactly the same as in x264, so Next to crf/2-pass it is the most important x264 parameter for afecting the quality of your final encode. 976 Repack --> Better video source no German overlays and subs retail eng added GREETZ. 7. Something must be going wrong either in x264 or TS muxer. 1 + libmatroska v1. See full list on slhck. ENG. Since you mentioned 2. x264-GAZER 7. Features Try these settings with –crf 20-22 depending upon your target bitrate. 264 encoding. 1. --vbv-bufsize 9600: Rule of thumb: set this value to the double of --vbv Constant rate factor. 1 x264 [info This will similarly be the case if this target bitrate is to obtained in multiple (2 or 3) pass encoding. 63. When you are encoding/exporting a video file, there is an important difference to understand: Variable Bit Rate vs Constant Bit Rate. qcomp will always be a number between 0. Select Quality as Average Bitrate (kbps) with 2-pass encoding enabled. 264 standard was chosen as an example. Set up a constrained / variable bit rate process for streaming. 2021. You can think of this command as a sentence, which can be read like this: x264 Encode with the x264 encoder--bframes 2 using no more than 2 consecutive B frames at any place in the video stream--ref 3 with prediction for P and B frames based on 3 reference frames (or 3 in each direction for B frames)--bitrate 2000 at an average bitrate of x264 FASTER preserves details nice and more clean, even with a lower total bitrate (5039kbps) NVENC 6000kbit already "loses" these at 6000. 35:1 Frame rate mode : Constant Frame rate : 23. Because of statistical nature of video, it can be overshot. On the other hand, complete compressed video frames are expected to be available in the buffer at regular time intervals, i. This means that, for example, if you target a certain file size or constant bit rate, you will achieve better quality with a slower preset. Means. 976 (24000/1001) FPS Color space : YUV Chroma subsampling : 4:2:0 Bit depth : 8 bits Scan type : Progressive Bits/(Pixel*Frame) : 0. WEBRip. To top it off, the x264 HD Benchmark is now capable of running in 64-bit mode, as well as 32-bit mode. Yet in the range of visual resolution, when the bit rate is high enough, it doesn't seem to make a difference. YouTube or Netflix are using 2-pass or even 3-pass algorithms, where in the latter, a CRF encode for a given source determines the best bitrate at which to 2-pass encode your stream. 264 / x264 at twice the bitrate of a. 1. option: The output file needs to be . The TODO list can be found here. Description: Bitrate is determined by the "Max Bitrate" setting in Encoding->Video Encoding or TargetKbps if "use global Max Bitrate" in Quick Sync Encoder Settings is unchecked. Constant versus Variable. Genre : Comedy An Englishman wakes in a hotel bedroom suffering from amnesia and sets out to find his identity. 1 ('Bouncin' Back') built on Jul 3 2010 22:54:08 Writing library : libebml v1. 7gb it was ~8k bit rate which i thought was to low for a 1080p high movement movie. 264 Video Codecs Comparison , with ~24% better encoding than second place. 3. This is optional and not shown above as constant bitrate content is dead to me. PunisheR Language : Hindi Service kind : Complete Main Default : Yes Overall bit rate : 7 741 kb/s Writing application : Lavf58. A constant bitrate encodes at approximately the same rate throughout the stream. You can use this to either represent multiple tracks (for instance languages), or multiple discrete surround channels. Setting constant bitrate for x264 encoder Live Transcoder for Nimble Streamer has wide range of transcoding capabilities which include H. 1 (2014-12) Reference DTR/PLT-00041 Keywords MIMO, powerline, video ETSI 650 Route des Lucioles F-06921 Sophia Antipolis Cedex - FRANCE Writing library : x264 core 157 r2935 545de2f Audio ID : 2 Format : AAC LC Format/Info : Advanced Audio Codec Low Complexity Codec ID : mp4a-40-2 Duration : 2 h 13 min Bit rate mode : Constant Bit rate : 160 kb/s In bitrate starvation, x264 appears to be sharper and goes into a blocky-mode of degradation preferring to retain sharp details even if it makes it look noisy. Since the file size is dictated by the bitrate, transcoding a file from h. Zones for arbitrarily adjusting bitrate distribution Awards 2010 May 25 — x264 won MSU Sixth MPEG-4 AVC/H. To compare H. 2. Our recommended bitrate settings have been tested to optimize video quality without wasting bandwidth. for. 068 Stream size : 2. Set the global quality as an integer in lambda x264 --preset placebo --tune psnr -o <output> <input> Constant bitrate at 1000kbps with a 2 second-buffer: x264 --vbv-bufsize 2000 --bitrate 1000 -o <output> <input> While the average bitrate is around 3500 kbps, 4500 kbps spikes will cause viewers to buffer and experience issues. The default for x264 is 23, and x265 is 28, so if you are not sure about what Constant Quality value you should use, you can begin with the default value 23 or 28 and adjust it to lower or higher according to the output quality you want to achieve. 4 Constant rate-factor This is a one-pass mode that is optimal if the user does not desire a specific bitrate, but specifies quality instead. When we use a bitrate of 5 mbps @ 1080p, the video quality is excellent and for the same video, when we use a bitrate of 1. Where did this option go? After installing Voukoder and accessing it from Premier I only see VBR, CRF, and CQF as video strategy options. Team. WEBRip. mp4 testrgb. --bitrate 2400: The bitrate this representation should achieve in kbps. and. Luckily for those who run Linux, the H. 000 FPS Color space : YUV Chroma subsampling : 4:2:0 Bit depth : 8 bits Scan type : Progressive Bits/(Pixel*Frame) : 0. pass1 (0x00000011) – VBR Encoding - Pass 1. 264 level 4. mp4 -c:v libx264 -x264-params "nal-hrd=cbr" -b:v 1M -minrate 1M -maxrate 1M -bufsize 2M output. It's nice because everyone running it will use the same video clip and software. 8 ( 'C' est le bon ') built on Aug 13 2009 12:49:06 Bit rate mode : Constant. There are frames with partial macroblock drops and completely blank frames even! Encoder settings: bitrate, profile, key frame alignment and more in Nimble Transcoder Live Transcoder for Nimble Streamer has wide range of transcoding capabilities which include H. Use the slowest -preset you have patience for. Presets can be used to easily tell x264 if it should try to be fast to enhance compression/quality. x264 is widely used in the core of many web video services, including Facebook’s, and adopted by television x264 Video Encoder. This doesn't mean that every frame is encoded with the same amount of bits (since it would harm quality), but the bitrate will be very constrained. General usage is to use the highest -crf value that still provides an acceptable quality. 1 Atmos Msubs – GrabitBD February 27, 2021 Indian Pro Music League 2021 S01 EP01 Grand Opening 1080p WEB-DL x264 AAC 2. With NvEnc, I first left it at 18 and got the large file sizes. This guide will talk about two bitrate modes: CBR and CRF/CQP. A constant bit rate or constant bitrate (CBR) is a bit rate that does not change. Setting -qcomp to 0 and setting the vbv should get a decent result. 2. x264-MeM. 1080p. Variable bitrate (VBR) is a strategy to maximize the visual video quality and minimize the bitrate. 264 to h. DDP5. 1. These are typical of greater size and higher quality. VBR allows you to set a maximum and minimum bitrate. E:\rec>x264 --bitrate 2000 --vbv-bufsize 2000 -o testo. Alternatively, one may choose to perform Constant Quantizer or Quality encoding, in which case the property controls much of the outcome, in that case is the maximum bitrate. But instead of making the video bitrate constant (nal-hrd=cbr), I’ve set the option “-muxrate”. Setting a specific bit rate forces the encoder to use the target bitrate even if the frame doesn’t need it, wasting bits and encoding time. CBR - constant bitrate Overall bit rate : 10. 75 MiB; Powered By evo-host. Hi, I'm backing up some DVD (PAL) converting them to mkv/x264 files resized to 720x404 (in case of 16:9) or 720x304 (in case if 2,35:1). 1 Video ID : 1 Format : AVC Format/Info Bit rate : 1 100 kb/s Width : 720 pixels Height : 360 pixels Display aspect ratio : 2. 1996. CRF (Constant Rate Factor) x264 only Similar to how CQP gives you a range of 0 to 30, with the lower numbers being better quality, CRF ranges from 0 to 51, with around 17 to 24 being considered ‘good quality’. In many Voukoder screen captures I've found while searching I see a Strategy option for Constant Bitrate (CBR). avconv -i input -c:v libx264 -bufsize 2M -maxrate 2M -qcomp 0 out. 4 Constant rate-factor This is a one-pass mode that is optimal if the user does not desire a specific bitrate, but specifies quality instead. 3. A lower RF number produces higher quality video, and a higher RF number produces lower quality video. x264 is a software encoder - its a piece of software. 264#twopass) Constant Rate Factor (CRF) In this guide we are going to focus on CRF and Two-Pass encoding. Frametypes: I,i,K,P,B,b. --vbv-bufsize 9600: Rule of thumb: set this value to the double of --vbv At 4. Then i did another ski movie and it got 12mbit ish bit rate with only a single dvd sized file. This value is not used and disabled if using CBR (constant bitrate). --qcomp 0 will cause a constant bitrate, while --qcomp 1 will cause a constant quantizer. Along with this, audio streams are encoded to ogg, acc, mp3, flac and ac3 inside the following containers mp4, mkv, m2ts, mov, WebM, and avi. flags. 720p. 264 codec (also known as the Advanced Video Codec, or AVC) has a successful and effective open-source implementation known as x264. avi --demuxer avs avs [info]: trying AVISource succeeded avs [info]: 576x406p 0:0 @ 60/1 fps (cfr) resize [warning]: converting from bgra to yuv420p x264 [warning]: VBV maxrate unspecified, assuming CBR x264 [info]: using cpu capabilities: MMX2 SSE2Fast SSSE3 FastShuffle SSE4. --vbv-maxrate 4800: Rule of thumb: set this value to the double of --bitrate. Hi, does anybody know how i can set in Kdenlive the frame rate to constant? I have an input file with constant frame rate and after the encoding with the following parameters „f=matroska hq=1 vcodec=libx264 preset=veryfast crf=%quality acodec=libfdk_aac ab=%audiobitrate+'k' ar=48000„, mediainfo tells me, the new file has a variable frame rate. Use a constant quality target and limit the bitrate only to catch spikes. , video at a constant bit rate (see picture below). 1080p. Good for: I can’t think of anything. Therefore, if you plan to store your movie in AVI, you will have to use a less efficient codec such as MP3 or AC-3. jeddak-MIRCrew - Constant Quantizer (QP) 设定x264以恒定量化值(Constant Quantizer)模式来编码视讯。此方法可以让每一个划格获得相同品质 (设定值)。 设定值范围为 0–69,0 为最无损,默认值为 23。比较低的数值会得到比较高的品质,合理的范围 21 - 28。 Constant Ratefactor (CRF) Bit rate : 900 Kbps Width : 1 280 pixels Height : 544 pixels Display aspect ratio : 2. pass2 (0x00000012) – VBR Encoding - Pass 2. So far the quality with NvEnc 22 looks about equivalent to x264 18. Also, very high bitrate spikes will cause persistent buffering for viewers. Constant Bitrate Encoding. mkv 1. At very low bitrates, however, x265 will indeed surpass x264, but at the levels of quality it does with default settings, you will be smudging a lot of fine grain and dark detail and the source I turn off all filters (including deinterlace). qual (0x00000005) – Constant Quality. 1080p. Max Kbps. 1. Streaming nowadays is done a little more cleverly. CBR is an encoding method that keeps the same bitrate throughout the entire video, making it easy to playback and quick to load. 35:1 Frame rate mode : Constant Frame rate : 23. 33 size:136013 x264 [info]: frame B Download x264 Video Codec rev - x264 is a free library for encoding H. It is widely used by television broadcasters and ISPs. Example: &ex:targetkbps:3000. Because it takes a different bitrate to reach a given quality level for any given part of any movie, the output size is unpredictable and varies from source to source. Similarly, for constant quality encoding, you will simply save bitrate by choosing a slower preset. So i bumped it up to 1. 264 encoders with GPGPU that I can think of are Badaboom and ATI's AVIVO encoder. The higher the buffer size, the higher the allowed bitrate variation. To avoid this, specify constant bitrate or lower the bitrate. For example, a too high Beta value and a too high Alpha means x264 will identify too many blocks (even when they aren't artifacts) and apply too much filtering to remove them, making the picture threads=0 is x264 default number of threads. Use the slowest -preset you have patience for. WEB. BluRay. Param Name: maxkbps Usage: In VBR: The max bitrate allowed. iTALiAN. BluRay. Of particular interest are the low-bitrate possibilities this video codec provides. 264 / x264 at the same bitrate as a. 0. Alternatively, GPU encoding (e. Let me make it very clear: if you encoded the x264 with the first 50% at 200% bitrate and the last half at 0% bitrate and then compared frames from the first half against x265, it would be unfair. Used to enable constant quality mode (VBR) encoding through the qscale flag, and to enable the pass1 and pass2 modes. Inter-frame QP changes, intra-frame macroblock QP changes, the output bit rate is unknown, and the output visual quality of each frame is basically constant. 264/MPEG-4 AVC video streams. , video can be played out at a constant frame rate. ENG. 265: 1. Tweak the bitrate of regions of the video Each zone is of the form ,, where is either q= (force QP) or b= (bitrate multiplier) --qpfile Force frametypes and QPs for some or all frames Format of each line: framenumber frametype QP QP is optional (none lets x264 choose). Bullets. Beta determines when x264 decides something is a block and when something isn't - a high value means x264 sees more video as blocks than a lower value. 2 ('Crosses') 64bit Audio in AVI files must be either constant-bitrate (CBR) or constant-framesize (i. Maximum bit rate : 5 475 kb/s Width : 1 920 pixels Height : 1 080 pixels Display aspect ratio : 16:9 Frame rate mode : Constant Frame rate : 24. 265 will give Thank you for this inspiring post. 1kbit/s for x264 and 51. constant or variable bit rate, as well Code: Select all General Complete name : D:\eMule\Iron. constant quantizer, single or multipass ABR, optional VBV approximately 10% bitrate Google Drive - The. 976 (23976/1000) FPS Color space : YUV Chroma subsampling : 4:2:0 Bit depth : 8 bits Scan type : Progressive Bits/(Pixel*Frame) : 0. Using VBR allows the MP3 encoder to use lower bit rates during quieter or less Padmaavat 2018 Hindi 720p PreDvDRip x264 AAC -xRG. 264 (x264). x264 codec implementing H. 264 video is as follows: The one upside to constant quality/crf is that it only requires one pass, but on the other side you can do a fast/turbo pass on the 1st pass of a 2 pass bit rate. 0 ('World of Adventure') 64bit Writing library : libebml v1. Cover. The Average Bitrate will need to be calculated before set with a value. 0 kHz Frame rate : 46. exe -i "input. 01 will force a very strict constant bitrate, so much so that libx264 will complain and adjust accordingly. 1955. ABR, constant average target bit rate. x264-VETO 3. Encoding with a constant bitrate is a quicker and more efficient process than the variable alternative. Set the GOP size. 3 Mb / s Encoded date : UTC 2010 - 02 - 21 20 : 55 : 39 Writing application : mkvmerge v2 . FourCC Code: H264 and X264 - H264 : H. 264 (x264 may work) FRAME RATE: 25 or 30: KEYFRAME INTERVAL: 2 secs (or 2x frame rate) SCANNING: Progressive: ENCODING BITRATE: Constant (CBR) AUDIO CODEC: AAC: AUDIO BITRATE: 128 kbps: AUDIO CHANNELS: 2 (Stereo) AUDIO SAMPLE RATE: 48 kHz (48,000 Hz) Constant rate factor. 0. MULTi. mkv 6. 5 Constant quantizer 3 In the VBV model, the compressed video bit stream fills the buffer at a constant speed, i. Generally speaking CBR also provides the highest visual fidelity, as it will aim to maintain a consistent specified bitrate. A change of ±6 should result in about half/double the file size. Faster Encoding - No need to do 2-Pass encoding (thus almost halving the encode time. It has the ability to encode single title/ chapter. --vbv-maxrate 4800: Rule of thumb: set this value to the double of --bitrate. GPGPU support for x264 is months or even years away, if ever. 0, your crf number or 2-pass bitrate will yield a constant bitrate throughout the entire encode. 720p. 875 FPS (1024 SPF) Compression mode : Lossy Stream size : 230 MiB (19%) Title : RARBG - Judas. Constant. See full list on chaneru. -->[/url] 译 名 400发子弹 片 名 400 Bullets 年 代 2021 产 地 美国 类 别 战争 / 犯罪 语 言 英语 上映日期 2021-03-02( 400发子弹 400. HandBrake hence provides you Constant quality mode, which helps you automatically adjust the bit rate and video file size once you specify a quality level. 5dvd size (~7gb) and it ended up 12mbps bit rate which was much better. For Only Vip Members Malena (2000) Bluray Uncut 1080p TR-EN DTS-HD MA 5. x264-METiS. 4/10 based on 341 user ratings. Another useful scenario is to determine whether a video file can fit in a fixed-size medium like a DVD-R at acceptable quality. Ensure you have intra refresh and therefore I pictures are turned off. constant bitrate, in that it doesn’t reliably deliver good quality. Download and Bit rate mode : Constant Bit rate : 1 509 kb/s Channel(s) : 6 channels Channel layout : C L R Ls Rs LFE Sampling rate : 48. Instead, it modifies that mode using the x264 # `ratetol=inf` option. quant (0x00000004) – Constant Quantizer. Constant Bitrate (CBR) If it is a requirement for your use case, you can force the encoder to always use a certain bitrate by enabling the. 2-pass constant bitrate (see H. Conversely, too high a bitrate may cause issues with buffering or dropped frames for your viewers, or with your own bandwidth. Width : 1 920 pixels x264 core 148 r2579 73ae2d1. Constant Rate Factor (CRF) ¶ Use this mode if you want to retain good visual quality and don't care about the exact bitrate or filesize of the encoded file. x264 powers many popular internet video services, such as YouTube, Facebook, and Vimeo. 113 Variable bitrate (VBR) and; Constant bitrate (CBR). Edit green fields to fine tune values to match your upload speed and streaming service maximum bitrate 15 0. 0 kHz Frame rate : 187. Tweak the bitrate of regions of the video Each zone is of the form <start frame>,<end frame>,<option> where <option> is either q=<integer> (force QP) or b=<float> (bitrate multiplier) --qpfile <string> Force frametypes and QPs for some or all frames Format of each line: framenumber frametype QP QP is optional (none lets x264 choose). I had to solve a similar problem. Where did this option go? After installing Voukoder and accessing it from Premier I only see VBR, CRF, and CQF as video strategy options. A slower preset will provide better compression (compression is quality per filesize). Ensure Video Encoder is set to H. With x264, I use Constant Quality 18 RF. In case VBR (Variable Bit Rate) mode is enabled this option is ignored. nal-hrd. Approximately every 6 points will double your file size, and as you can imagine, subtracting 6 will halve it. exe -i "input. . In contrast, x265 starts smoothing areas of lower detail, while “popping” sharpness into the areas that have finer details. 4/10 based on 179,497 user ratings Genres: Drama, Romance, War At the close of World War II, a young nurse tends to a badly-burned General Complete name : This. Slow is a good default. A static image isn’t always great, so here’s the 35-second video I made showcasing the difference between these RF settings in “24”. BluRay. 8. You may have noticed the option to select between VBR (variable bitrate) and CBR (constant bitrate). He tracks down his wife but soon learns that the job she saw him leave for every morning did not exist. io The vbv max bitrate needs to be set to the cbr target bitrate value. A bitrate of 128k is specified for it using absolute index of the output stream. 4. It encodes H. One option you will notice when you go to encode your videos is a selection for VBR (Variable Bit Rate encoding) or CBR (Constant Bit Rate encoding). 2012. x264-CiNEFiLE [IMG] Rating: 7. At 4. Bad for: Almost anything. The new x264 encoder supports the following features : Threaded lookahead ; 8x8 and 4x4 adaptive spatial transform ; Adaptive B-frame placement Each figure represents the percentage of users who have the bandwidthto support the respective total bit rate in that category. 1 BPP is kind of a constant value to ensure good quality of high motion scenes. Bit rate : 3 300 kb/s Width : 1 920 pixels Height : 1 060 pixels Display aspect ratio : 16:9 Frame rate mode : Constant Frame rate : 23. Part 2. Target Kbps. The goal of this document is to show typical codec’s analysis to support future tuning. 64 GiB Duration : 1 h 44 min Overall bit rate : 10. 5. pw. It is the same as ABR, except that the scaling factor is a user defined constant and no overflow compensation is done. Frametypes Tweak the bitrate of regions of the video Each zone is of the form ,, where is either q= (force QP) or b= (bitrate multiplier) --qpfile Force frametypes and QPs for some or all frames Format of each line: framenumber frametype QP QP is optional (none lets x264 choose). But if i change CRF constant value on the fly for CRF ratecontrol in the same way as described Nominal bit rate : 5 395 Kbps / 5 395 Kbps So I'd hazard a guess and say that x264 is still doing a mix of CBR and VBR. 0 ('Beginnings') built on Feb 12 2010 16:46:17 Writing library : libebml v0. It is the same as ABR, except that the scaling factor is a user defined constant and no overflow compensation is done. Quality is determined by the bitrate. AMZN. Note: the -nooption syntax cannot be used for boolean AVOptions, use -option 0 / -option 1 . Both likewise utilize the “High” profile and a keyframe interim of 2. 42. In the documentation of h. Constant bitrate will always attempt to match the bitrate you’ve set. 070 Stream size : 608 MiB (89%) Writing library : x264 core 148 r2722 1b0121b If you check VBR, you can get a better quality-to-space ratio compared to a CBR (Constant bitrate) file of the same data. BluRay. At one extreme, qcomp=0 aims for true constant bitrate. H. Max Bitrate = 38,000 MBs / Video Seconds When using variable bitrate, this controls the CRF (constant rate factor) parameter in x264 (10 is CRF 22, 0 is CRF 32). BluRay. 0 kHz Language The Movie Database (TMDb) is a popular, user editable database for movies and TV shows. Constant quantizer Constant quality mode does the opposite; you specify a quality level and HandBrake adjusts the bitrate (that is, the size) to meet it. Man. It currently uses x264 library licensed for commercial usage and any customer with our Transcoder may use x264 parameters to set up outgoing stream. 264 and MPEG-4 AVC encoder tool for most GNU/Linux operating systems. iTA. We recommend a bitrate between 10,000 and 15,000 Kbps. 56 GiB Duration : 2h 4mn Overall bit rate : 7 530 Kbps Encoded date : UTC 2010-09-09 06:09:44 Writing application : mkvmerge v3. 264 encoding with x264 library licensed for commercial usage by our company so any customer with our Transcoder may use x264 parameters to set up outgoing stream. Constant Bitrate. qcomp will always be a number between 0. A sane range is between 18 and 28. Param Name: maxkbps Usage: In VBR: The max bitrate allowed. Target Kbps. Having a static bitrate can cause frames to drop because your connection is unable to keep up and will drop frames to improve the stability of your stream and minimize latency. For example, 25% of usershave bandwidth of at least 1200 Kbps to support the D1 video type but don'thave the higher bandwidth needed to support the next higher bit rate of 1800Kbps. x264-VETO 3. Set it to the target bitrate. To choose this bit rate control method, you must first set the bitrate. S01E01. Encoding. 0 Format settings Presets can be used to easily tell x264 if it should try to be fast to enhance compression/quality. Constant Quality Bit rate mode : Variable Bit rate : 5 620 kb/s Maximum bit rate : 8 430 kb/s Width : 1 920 pixels Height : 1 080 pixels Display aspect ratio : 16:9 Frame rate mode : Constant Frame rate : 23. An average bit rate or average bitrate (ABR) may refer to either total bits ÷ time or a form of VBR. This is only used with variable bitrate, and determines how the video encoder should spend bits for quality. Some of you may wonder if there is a certain connection between bitrate and resolution. Bit rate : 2 001 kb/s. The unit of bitrate in X264 is Kbps (K bit per second). What Is x264 HD Benchmark? Simply put, it is a reproducible measure of fast your machine can encode a short HD-quality video clip into a high quality x264 video file. War. 9 + libmatroska v0. 000 FPS: Category: MotorSport: Rating: N/A: Size: 2. BluRay. 976 (24000/1001) FPS Color space : YUV Chroma subsampling : 4:2:0 Bit depth : 8 bits Scan type : Progressive Bits/(Pixel*Frame) : 0. Since you probably didn't mean to have that answer, I'll fill you in on a little secret. 2) PROGRESSION: A)Successor to MPEG-2 Part . 000 Frame rate mode : Constant Frame rate : 24. I'm using x264 and suggested bitrate for DVD encoding - VideoHelp Forum But by using VBR and multi-pass, encoder “knows” that this piece is OK with lower bitrate and that bitrate can be then used for more complex scenes, thus creating better quality for those scenes that require more bitrate. 0 – GrabitBD 2 Pass Manual X264 but AUTO BITRATE: The movie will be encoded in 2 pass. Like most other encoders, libvpx offers a constant bitrate encoding mode as well, which tries to encode the video in such a way that an average bitrate is reached. 264 (also known as AVC or x. BluRay. The higher the frame rate, the higher the CPU usage. Then i did another ski movie and it got 12mbit ish bit rate with only a single dvd sized file. Sometimes streaming encoders try to be too smart and optimize bitrate. png 12. How exactly the encoder decides how much bitrate to use is a very different choice for streaming versus recording locally. --bitrate 2400: The bitrate this representation should achieve in kbps. Therefore, the bitrate does have its optimal value. Strong and weak spots of x264 in terms of encoding speed and video quality are found and recommendations on use of codec’s presets are given. ETSI 2 ETSI TR 103 234 V1. This i am doing by pausing my x264 system and updating new bitrate value and playing back the sytem. Encoding Performance Encoding can be taxing on your system. We also updated the benchmark with revision 2200 of the x264 encoder, and CPU-Z 1. 057 Bitrate is simply the amount of data used per a unit of time for encoding videos. A sane range is between 18 and 28. The only point of using x265 is for compatibility, lossless and HDR content, otherwise, even at SDR 4k x264 will fare better if given enough bitrate. Frame Rate - Lets you set the framerate for your stream. Param Name: targetkbps Usage: In CBR – The bitrate used In VBR – The target bitrate. The best one-pass option in x264. Requires the VBV buffersize to be set. 263) RealMedia Variable Bitrate (RMVB) is a file format developed by RealNetworks as a variable bitrate extension to the RealMedia multimedia digital container format. Constant Bit Rate (CBR) and Variable Bit Rate (VBR) are two types of bit rate encoding. 5 mbps, the quality is quite bad for the CrowdRun video. In many Voukoder screen captures I've found while searching I see a Strategy option for Constant Bitrate (CBR). Bitrate and resolution are two main influential factos that decide the quality of a video you play on your every sort of devices. CBR: constant bitrate control algorithm Use case: streaming or recording with a constant bit rate. 2021. all frames decode to the same number of samples). You can think of this command as a sentence, which can be read like this: x264 Encode with the x264 encoder--bframes 2 using no more than 2 consecutive B frames at any place in the video stream--ref 3 with prediction for P and B frames based on 3 reference frames (or 3 in each direction for B frames)--bitrate 2000 at an average bitrate of 2. However, the downside to this is that it will require higher bandwidth. Overall bit rate : 6 225 kb/s Movie name : Rip by msltel Encoded date : UTC 2019-04-01 05:57:55 Writing application : mkvmerge v8. As in, it will try to stay at your setting of 5395kbps but in quiet scenes where a high bitrate is not necessary, it's lowering it in a bid to save disk space. 5 Constant quantizer 3 1 – Constant Bitrate (CBR) 2 – Variable Bitrate (VBR) 3 – Constant Quality Parameter (CQP) Example: &ex:rc_method:3. -f mp4 defines that the format will be an MP4 container. Constant Bit Rate or Variable Bit Rate for Podcasting? This is a simple one: always choose constant bit-rate. Example: &ex:targetkbps:3000. 2. constant bitrate, in that it doesn’t reliably deliver good quality. g. Most of my comparison between constant quality vs 2 pass bit rate has come when encoding music videos that I ripped from DVD's. As a general rule VBR is for progressive or standard downloads and CBR is for use when using a streaming cloudfront. Difference between 1-pass & 2-pass encoding Bit rate mode : Constant Bit rate : 256 kb/s Channel(s) : 2 channels Channel layout : L R Sampling rate : 48. maxrate <integer> Specifies the maximum bitrate at any point in the video. . 2 x264 [info]: profile High, level 3. A multi-platform QT based frontend which can convert almost every input to x264, x265, Xvid, and VP9. 7gb it was ~8k bit rate which i thought was to low for a 1080p high movement movie. For example, some would ask what the best video bitrate is for 1080p HD One final consideration should be to encode MP3s using a 'variable bit rate' instead of a 'constant bit rate'. Dropping it to 22 produces about the same file sizes as x264 @ 18 RF, and the encode performance improves. The best one-pass option in x264. I do this for constant bitrate in windows: ffmpeg. 1 - 640kbps - 48kHz ~ The. Constant quality mode (also known as constant ratefactor). If your file contains at least one audio track, then the actual file will come out bigger than the specified size. PC Builder Simulator: Look at the PCI brackets and bottom of the motherboard tray / PSU cover. Most of HandBrake’s official Presets use the x264 or x265 video encoders with a Constant Rate Factor, sometimes abbreviated CRF or simply RF. This means that, for example, if you target a certain file size or constant bit rate, you will achieve better quality with a slower preset. Bad for: Almost anything. Lower values are higher quality; 0 is lossless, 18 is visually lossless, and 23 is the default value. 264/AVC and provides best-in-class performance, compression, and features with ~24% better encoding than the second place encoder in MSU Sixth MPEG-4 AVC/H. Well, it’s quite obvious that the upper one is the lower bitrate and the second screenshot is the higher bitrate. The project is distributed as part of the VideoLAN project, which develops the powerful VLC Media Player software, and can be used to encode H264/AVC video streams. Typically this would make high-motion scenes look completely awful, while low-motion scenes would probably look absolutely perfect, but would also use many times more bitrate than they would need in order to look merely excellent. 2. global_quality. 264 and HEVC / H. mov" -s 620x348 -an -pass 2 -vcodec libx264 -aspect 16:9 -vpre "C:\ffmpeg\ffpresets\libx264-medium. 0. On fast-motion scenes, a variable bitrate uses more bits than it does on slow-motion scenes of similar duration, yet achieves a consistent visual quality. 1 | avc1 Resolution = 712x400 Display AR = 1. UNRATED. Patient. 1. Variable vs Constant Bit Rate. Also, keep in mind, that “~50kbit/s nominal bitrate” means 71. 0 and 1. # bitrate of 5000 kbps, varying 500-600 kbps either way. For this content, I set NVENC and X264 to record at a bitrate of 6 Mbps. 104 Video ID : 1 Format : AVC Format/Info : Advanced Video Codec Format profile : High@L3. # # Please note that this script does NOT use the default x264 single-pass # average bitrate (ABR) mode. pass3 (0x00000013) – VBR Encoding - Pass 3 Encoded using H. 1. 40 GiB (88%) Writing library : x264 core 157 r2935 545de2f Bit rate mode : Constant Bit rate : 256 kb/s Channel(s) : 2 channels Channel layout : L R Sampling rate : 48. 177 Stream size : 386 MiB (45%) Writing library : x264 core 148 r2795M aaa9aa8 Bit rate mode : Variable Bit rate : 499 Kbps Maximum bit rate : 2 456 Kbps Width : 592 pixels Height : 256 pixels Display aspect ratio : 2. Slow is a good default. Remember its a guideline. 976 (24000/1001) FPS Color space : YUV Chroma subsampling : 4:2:0 Bit depth : 8 bits Scan type : Progressive Bits/(Pixel*Frame) : 0. S04E08. Download Ani-x264 - Advanced batch encoder GUI for audio and video files with support for Nero AAC Codec, AviSynth, FFDShow, and Haali Media Splitter . 2021. x264. 1 x264-Grym VIP x262 is an MPEG-2 encoder based on the best-in-class features of x264. Note: the old undocumented way of specifying per-stream AVOptions by prepending v/a/s to the options name is now obsolete and will be removed soon. 2 Video Drishyam (2013) UNCUT 720p BluRay x264 Esubs [Dual Audio] [Hindi DD 2. 264 Video Encoder. 264), the recommended bitrate of H. 1 – Constant Bitrate (CBR) 2 – Variable Bitrate (VBR) 3 – Constant Quality Parameter (CQP) Example: &ex:rc_method:3. Select Framerate (FPS) as 30 and toggle Constant Framerate. 5 Mb/s Writing application : mkvmerge v4. Action. ) Constant Quality can produce the same quality as a 2 pass encode. Like Like Technical: General Complete name : H:\\Scott and Bailey S04E02 x264 RB58. For live streaming, x264 is recommended for streaming. Set the video bitrate in bit/s for CBR (Constant Bit Rate) mode. At one extreme, qcomp=0 aims for true constant bitrate. B)MPEG-H, HEVC, Part 2 (Approved in Jan 2013 ). 232 Bit rate mode : Variable Bit rate : 1 191 kb/s Maximum bit rate : 3 600 kb/s Width : 1 280 pixels Height : 682 pixels Display aspect ratio : 1. 35:1 Frame rate mode : Constant Frame rate : 25. 264 and B) is h. Frametypes OBS Studio - Free and open source software for live streaming and screen recording - obsproject/obs-studio Bit rate mode : Constant Bit rate : 8 701 kb/s Nominal bit rate : 10 000 kb/s Width : 1 920 pixels Height : 816 pixels Display aspect ratio : 2. Many external factors can affect a user’s connection. nal-hrd. e. x264 is a well-known video encoder for H. x264 will utilize a lot of your CPU, resulting in lower FPS. --vbv-maxrate <integer> (x264)-maxrate <integer> (FFmpeg) Specifies the maximum bitrate at any point in the video. info Constant rate-factor (CRF) This is a one-pass mode that is optimal if the user does not desire a specific bitrate, but specifies quality instead. (2010). Again, this is like # iTunes video. Use -b:v 3500K -maxrate 3500K -bufsize 1000K, for example. mkv Bit rate mode : Constant Bit rate : 640 kb/s Channel(s) : 6 channels Channel positions : Front: L C R, Side: L R, LFE Sampling rate : 48. 12 GiB (Sample)-Padmaavat 2018 Hindi 720p PreDvDRip x264 AAC -xRG. General usage is to use the highest -crf value that still provides an acceptable quality. mkv Format : Matroska File size : 6. Narcissus. e. ts A slower preset will provide better compression (compression is quality per filesize). 0 + libmatroska v1. Bitrate corresponds approximately to that of constant quantizer, but gives better quality overall at little speed cost. Used when you want a specific quality output. 32 GB , Magnet, Torrent, A man goes to extreme lengths to save his Oscars Best Picture Winners Best Picture Winners Golden Globes Emmys Black History Month STARmeter Awards San Diego Comic-Con New York Comic-Con Sundance Film Festival Toronto Int'l Film Festival Awards Central Festival Central All Events Please note: x264 will not take the audio bitrate and the container overhead into account. 1], Size : 1. 9 . 750 FPS (512 SPF) Bit depth : 24 bits Compression mode : Lossy x264 Video Codec is a free application for encoding video streams into the H. 52GB Tom and Jerry (2021) English 1080p & 720p WEB-DL x264 DD+5. option: The output file needs to be . 0 kHz Frame rate : 93. Hence the target size specified in the x264 dialog only effects the video part of the file. 1. With x264 and x265, you can set the values between 0 and 51, where lower values would result in better quality, at the expense of higher file sizes. Typically this would make high-motion scenes look completely awful, while low-motion scenes would probably look absolutely perfect, but would also use many times more bitrate than they would need in order to look merely excellent. Bitrate is measured in bits/second. Requires the VBV Constant quality mode (also known as constant ratefactor). 4. The most popular h. 100 x264 core 161 r3048 b86ae3c Constant Bit rate : 384 kb/s Channel(s) : 2 channels I am changing the bitrate for x264 on the fly in my system for CBR ratecontrol. At 0. github. Black. 0 Video ID : 1 Format : AVC Format/Info : Advanced Video Codec General Unique ID : 5411881224330079250834750962586004333 (0x4124A58585D9596F8971435DDE2AB6D) Complete name : Black. Network congestion is the main culprit. Good for: I can’t think of anything. com X264 does not have a native constant bitrate mode. Similarly, for constant quality encoding, you will simply save bitrate by choosing a slower preset. If you have limited upload bandwidth, then VBR or variable bitrate is a good choice. ts where: nal-hrd=cbr set the hypothetical reference decoder (HRD) to CBR and pack the bitstream to the specified bitrate force-cfr=1 force constant framerate timestamp generation -b:v the video bitrate -minrate -maxrate same… CRF Guide (Constant Rate Factor in x264 and x265) See more… For example, if you set CRF 23, you may end up with 1,500 kBit/s for one source, but only 1,000 kBit/s for the x264 --tff --interlaced --bitrate 6999 --vbv-maxrate 6999 --vbv-bufsize 6999 --pass 1 -o blablabla xxxx The encode result shows bitrate variation is small, however, once I remux into TS, the video bitrate become dynamic/variant (checking by TS analyser). Bitrate corresponds approximately to that of constant quantizer, but gives better quality overall at little speed cost. Encoded using H. CRF is a constant quality, some frames need more some need Tweak the bitrate of regions of the video Each zone is of the form <start frame>,<end frame>,<option> where <option> is either q=<integer> (force QP) or b=<float> (bitrate multiplier) --qpfile <string> Force frametypes and QPs for some or all frames Format of each line: framenumber frametype QP QP is optional (none lets x264 choose). Here i am making vbv mode to 0, but i am not getting good results. 0. Unfortunately, the most efficient codec, Vorbis, does not meet either of these requirements. 5 start with crf 22 and go up or down from there. But that’s a very naive assumption. 875 FPS (1024 SPF) Compression mode : Lossy Stream size : 258 MiB (19%) Title : RARBG - Cherry. 976 fps Resolution : 8 bits Colorimetry : 4:2:0 Scan type : Progressive Bits/(Pixel*Frame) : 0. 000 FPS Color space : YUV Chroma subsampling : 4:2:0 Bit depth : 8 bits Scan type : Progressive Bits/(Pixel*Frame) : 0. Fashion 2008 Hindi 1080p | 720p BluRay x264 DTS-HDMA 5. If you choose to export with a Constant Bit Rate (CBR), your entire video will be your target bit rate, no matter what. MPEG-4 is a broad Open Standard developed by the Moving Picture Experts Group (MPEG), a working group of the International Organization for Standardization (ISO) which also did the well-known MPEG-1 (MP3, VCD) and MPEG-2 (DVD, SVCD) Standards, standardizing all sorts of audio/video compression Overall bit rate : 13. In fact, the x264 Project won the Doom9 2005 codec comparison test (see the on-line Resources). The Constant Rate Factor (CRF) is the default quality (and rate control) setting for the x264 and x265 encoders, and it’s also available for libvpx. Constant Quality For those interested, I’ve also got another page on this site that lets you compare x264 vs x265 vs VP8 vs VP9 (at various RF and bitrate settings). As the name suggests, CBR encoding creates consistently sized files. mkv Format : Matroska Format version : Version 2 File size : 7. 6kbit/s for x265! Overall, x264 fucks up big time. It is the same as ABR, except that the scaling factor is a user defined constant and no overflow compensation is done. Husband. Bullets. ts So, set minrate, maxrate and bitrate to the same rate. English. 40 GB: Show/Hide Files -->[/url] 译 名 400发子弹 片 名 400 Bullets 年 代 2021 产 地 美国 类 别 战争 / 犯罪 语 言 英语 上映日期 2021-03-02( 400发子弹 400. 0 - Malayalam 5. g. 0, your crf number or 2-pass bitrate will yield a constant bitrate throughout the entire encode. Bitrate - Describes the rate your data is transmitted in a given amount of time, measured in kilobits per second. 85:1 Frame rate mode : Constant Frame rate : 23. - Anna. 2019. The higher the bitrate, the First off, the OP assumed that same filesize = same bitrate = fair comparison. c. 2021. It comes with an integrated bitrate calculator. I do have a comparison tool at https://mattgadient. Constant Quality Benefits over Average Bitrate. Max Kbps. 1080p. 264/MPEG-4 AVC format. The superbit version should be almost lossless, practically indistinguishable from the original master – a "transparent" encoding, as it's known. AC3. This is the guideline to rc that this is the max instantaneous bitrate you are allowed. com/x264-vs-x265-vs-vp8-vs-vp9 Based on CRF Guide (Constant Rate Factor in x264, x265 and libvpx), quoting:. VBR allows a higher bitrate (and therefore more storage space) to be allocated to the more complex segments of This is just to show you some basic differences between what x264 and x265 are able to preserve, and what they are not. 1 Esub – GrabitBD March 29, 2021 Sohosro Ek Rojoni 2021 Bangla Dubbed S01 EP [11-20] 720p WEB-DL x264 AAC 2. Too many x264 threads can hurt quality in constant bitrate mode and near-constant bitrate mode called VBV (video buffer verifier), due to increased encode delay. 1080p. Next to crf/2-pass it is the most important x264 parameter for afecting the quality of your final encode. . 1. cbr (0x00000000) – Constant Bitrate Encoding. As opposed to constant bitrate (CBR), VBR files vary the amount of output data per time segment. SEAL. 000 fps Writing library : x264 Audio ID : 2 Format : AAC Format/Info : Advanced Audio Codec Duration : 2h 10mn Bit rate mode : Variable Bit rate : 96. In most cases, 1 byte per second (1 B/s) corresponds to 8 bit/s. This causes ABR mode to behave more like constant rate Total audio bitrate is the number of audio tracks times the given audio bitrate. After clicking on Configure Codec a message wiil be prompted (a warning to remember to set codec for first pass, image 3 ), after OK the X264 vfw panel will appeat. RMVB is typically used for media that is stored locally, as it is not designed for streaming, unlike the regular RealMedia container, which is meant to hold streaming media that is x264 is an open source and freely distributed command-line software that provides a capable H. At 0. NVIDIA NVENC) utilizes a dedicated encoder in the GPU, allowing you to play and stream without compromising game performance . e. SUB. Overall bit rate mode : Constant Overall bit rate : 901 kb/s Video ID : 1 Format : MPEG-4 Visual Format settings, BVOP : Yes Format settings, QPel : No Format settings, GMC : No warppoints Format settings, Matrix : Default (H. 265 1)INTRODUCTION: A)MPEG 4 Part 10 AVC (Introduced in 2004). 264/MPEG-4 Part 10 or AVC (Advanced Video Coding) is one of the most commonly used video formats for the recording, compression, and distribution of high definition video. The libx264 option ratetol=0. 04 KiB It generally determines the size and quality of video and audio files: the higher the bitrate, the better the quality, and the larger the file size because of File size = bitrate (kilobits per second) x duration. ffpreset" -b 1M -bt 1M Since you haven't set a specific bitrate, but instead have set CRF (which is a sort of quality level), the algorithm for determining bitrate must be determining that the material doesn't change much. x264-ION10 Language : English Default : Yes Alternate group : 1 CBR (Constant Bit Rate) There is no native or true CBR mode, but you can "simulate" a constant bit rate setting by tuning the parameters of a one-pass average bitrate encode: ffmpeg -i input. 5 Mbps Encoded date : UTC 2015-11-27 16:55:11 Writing application : mkvmerge v8. : dvd-ed2k EVO No1 JATO capBd Hellboy (MiBR) hungdaita CHC Jack johnnydeep Nelsokege SSX Morax CONTACT US: [email protected] x264 LOG x264 [info]: frame I:1843 Avg QP:15. Messiah. 2. ffpreset" -b 1M -bt 1M -threads 2 -y NUL ffmpeg. A variable bit rate or variable bitrate (VBR) is a bit rate that varies depending upon the complexity of the data. 264 Video Codecs Comparison. The H264 profile that is eventually used depends on a few settings. Or does the benefit come when using lower bit rate and the quality doesn't suffer as much with 265. Bitrate Dips. The mpegts muxer is stuffing the transport stream with null packets to get a CBR during transfer when the option is used. 06GB Bit rate mode : Variable Bit rate : 4 392 kb/s Nominal bit rate : 4 640 kb/s Maximum bit rate : 6 960 kb/s Width : 1 920 pixels Height : 1 080 pixels Display aspect ratio : 16:9 Frame rate mode : Constant Frame rate : 23. 976 (24000/1001) FPS Color space : YUV Chroma subsampling : 4:2:0 Bit depth : 8 bits Scan type : Progressive Bits/(Pixel Rating : 6. In order to be viewed at this size, the viewer must have a strong internet connection. ts See full list on jp9000. 60. CBR vs VBR. x264-ION10 Language : English Default : Yes Alternate group : 1 Encoded date : UTC 2021-03-12 05:59:47 Variable bitrate (VBR) is a term used in telecommunications and computing that relates to the bitrate used in sound or video encoding. 52GB X264 still improves, however, I think NVENC may have the edge with regards to what you need for live gushing video. 0 Kbps Maximum bit rate : 113 Kbps Channel(s) : 2 channels Overall bitrate = 1 479 kb/s ViDEO Codec info = AVC High@L3. x264-SPARKS. Note that x264 doesn't have a true constant bit rate mode, this will effectively emulate one for most purposes - the bit rate will still vary over lengths of time less than or equal to 1 second. ts Update: YouTube's compression seems to really be softening out the details. WEBRip. 06 size:361312 x264 [info]: frame P:34055 Avg QP:16. Check out our tutorial on YouTube. At the moment, the only available H. --aq-mode 1 to 3 : 1 distributes bits on a per frame basis, 2 tends to allocate more bits to the foreground and can distribute bits in a small range of frames, 3 is a modified version of 2 that attempts to allocate more bits to dark parts of the frames. iTA. 0 – GrabitBD A) is h. Example command using a single-frame VBV: ffmpeg -i -r 25 -c:v libx264 -x264opts nal-hrd=cbr:force-cfr=1 -b:v 2500k -minrate 2500k -maxrate 2500k -bufsize 100k output. Supercars 2021 R01 Bathurst 500 Race1 x264 Hun Web Rip: Description: Duration : 1 h 49 min Bit rate mode : Constant Nominal bit rate : 3 000 kb/s / 3 212 kb/s Width : 1 280 pixels Height : 720 pixels Display aspect ratio : 16:9 Frame rate mode : Constant Frame rate : 25. 1. 780 | 16:9 Bitrate = 1 300 kb/s Framerate = CFR 29. Surely, there are some other factors like video codec. CBR or constant bitrate is the most widely used and accepted method. CODEC MUST BE SETTED (click on Configure Codec , image 1 ). Variable bit rate is good for complex stuff because the software tries to lower the bit rate when it can and save a few bytes. 0 kHz Frame rate : 46. Too many x264 threads increases latency and have more encoding memory usage. Param Name: targetkbps Usage: In CBR – The bitrate used In VBR – The target bitrate. Frametypes: I,i,K,P,B,b. Used when you want a specific quality output. x264-NTb MediaInfo Video ID : 1 Format : AVC Format/Info : Advanced Video Codec Format profile : HighL4 Format settings : CABAC / 4 Ref Frames Format settings, CABAC : Yes Format settings, Reference frames : 4 frames Codec ID : V_MPEG4/ISO/AVC Duration : 42 min 39 s Bit rate mode : Constant Video ID : 1 Format : AVC Format/Info : Advanced Video Codec Format profile : [email protected] Format settings : CABAC / 4 Ref Frames Format settings, CABAC : Yes Format settings, Reference frames : 4 frames Codec ID : V_MPEG4/ISO/AVC Duration : 2 h 29 min Bit rate : 3 600 kb/s Width : 1 920 pixels Height : 872 pixels Display aspect ratio : 2. 2. It also has the big advantage that the codec is simple enough for people new to video-compression to get involved. The bitrate chosen is 20 Mbps, which is a safe 80% of the maximum peak bitrate allowed for H. Lower values are higher quality; 0 is lossless, 18 is visually lossless, and 23 is the default value. You'll have to adjust the rate and buffer sizes to the context obviously. 2:1 Frame rate mode : Constant Frame rate : 23. Constant Bitrate (CBR) If it is a requirement for your use case, you can force the encoder to always use a certain bitrate by enabling the. 1. mp4 Format : MPEG-4 Format profile : Base Media Codec ID : isom File size : 503 MiB Duration : 46mn 13s Overall bit rate : 1 523 Kbps Writing application : Lavf54. 1080p. mov" -s 620x348 -an -pass 1 -vcodec libx264 -aspect 16:9 -vpre "C:\ffmpeg\libx264-medium_firstpass. 720p. 264 files. 0 and 1. But for the spoken word, and the bitrates we’re using in podcasting, this isn’t necessary. x264 constant bitrate